Flightplan 2005 1080p BluRay x264-WPi


    Seeders : 0      Leechers : 0

Hash :7FA3570821EFC8798AC5F1933826CB12F2C00EB6
Added :1 Year+ in Other - Other
Size :8.01 GB
Stream :Watch FREE Full Movies @


Flightplan 2005 1080p BluRay x264-WPi
Download your torrents safely! And Anonymously!








Please Turn on your VPN before Downloading Torrents.
Your IP Address is 193.93.192.140.   And Location United Kingdom, London
Your Internet Service Provider and Government can track your Online Activity!  Protect yourself from expensive lawsuits and fines NOW!
We Strongly Recommend Using Very Cheap VPN for P2P to Anonymize your Torrenting.

Note :

Please Update (Trackers Info) Before Start Torrents Downloading to See Updated Seeders And Leechers for Batter Download Speed.

Trackers List

Tracker NameLast CheckStatusSeedersLeechers



Torrent File Content (4 files)


Flightplan.2005.1080p.BluRay.x264-WPi
     RARBG.com.txt -
34 bytes

    Sample
          flightplan.2005.1080p.bluray.x264.sample-wpi.mkv -
69.76 MB

     flightplan.2005.1080p.bluray.x264-wpi.mkv -
7.95 GB

     flightplan.2005.1080p.bluray.x264-wpi.nfo -
3.16 KB



Description



 							 G E N E R A L i N F O R M A T i O N
ÜÜÜÜÜÜÜÜÜÜÜÜÜÜÜÜÜÜÜÜÜÜÜÜÜÜÜÜÜÜÜÜÜÜÜÜ

Release Title : Flightplan.2005.1080p.BluRay.x264-WPi
Theatre Date : 22/09/2005
DVD Date : 24/01/2006
Blu-ray Date : 21/11/2006
Release Date : April 2008
Runtime : 98 mins
Link : https://www.imdb.com/title/tt0408790/
Rating : 6.2/10
Genre : Action / Drama / Mystery / Thriller
Archive : 86x100mb


E N C O D E i N F O
ÜÜÜÜÜÜÜÜÜÜÜÜÜÜÜÜÜÜÜÜ

Source : Blu-ray (NTSC)
Aspect Ratio : 2.35:1 (Widescreen)
Resolution : 1920x816
Video : x264
Bitrate : 10493 kbps
Framerate : 23.976 fps
Audio : AC3 5.1Ch CBR
Language : English
Bitrate : 640 kbps 48khz
Subtitles : None

Screens:
image
image
image
image
image


[mediainfo]

Video
ID : 1
Format : AVC
Format/Info : Advanced Video Codec
Format profile : [email protected]
Format settings, CABAC : Yes
Format settings, ReFrames : 5 frames
Codec ID : V_MPEG4/ISO/AVC
Duration : 1h 38mn
Bit rate : 11.0 Mbps
Width : 1 920 pixels
Height : 816 pixels
Display aspect ratio : 2.35:1
Frame rate mode : Constant
Frame rate : 23.976 fps
Color space : YUV
Chroma subsampling : 4:2:0
Bit depth : 8 bits
Scan type : Progressive
Bits/(Pixel*Frame) : 0.292
Stream size : 7.35 GiB (92%)
Title : Video
Writing library : x264 core 59 r807 08b5132
Encoding settings : cabac=1 / ref=5 / deblock=1:0:0 / yse=0x3:0x133 / me=umh / subme=7 / brdo=1 / mixed_ref=1 / me_range=16 / chroma_me=1 / trellis=1 / 8x8dct=1 / cqm=0 / deadzone=21,11 / chroma_qp_offset=0 / threads=6 / nr=0 / decimate=1 / mbaff=0 / bframes=3 / b_pyramid=1 / b_adapt=1 / b_bias=0 / direct=1 / wpredb=1 / bime=1 / keyint=250 / keyint_min=25 / scenecut=40(pre) / rc=2pass / bitrate=10961 / ratetol=1.0 / rceq='blurCplx^(1-qComp)' / qcomp=1.00 / qpmin=10 / qpmax=51 / qpstep=4 / cplxblur=20.0 / qblur=0.5 / ip_ratio=1.40 / pb_ratio=1.30 / aq=2:1.00
Default : Yes
Forced : No

Audio
ID : 2
Format : AC-3
Format/Info : Audio Coding 3
Mode extension : CM (complete main)
Format settings, Endianness : Big
Codec ID : A_AC3
Duration : 1h 38mn
Bit rate mode : Constant
Bit rate : 640 Kbps
Channel(s) : 6 channels
Channel positions : Front: L C R, Side: L R, LFE
Sampling rate : 48.0 KHz
Bit depth : 16 bits
Compression mode : Lossy
Stream size : 449 MiB (6%)
Title : English (AC3)
Language : English
Default : Yes
Forced : No

[/mediainfo]

Related torrents

Torrent NameAddedSizeSeedLeechHealth
11 months ago - in Movies7.95 GB3552
1 Year+ - in Other1.87 GB00
1 Year+ - in Other10.61 GB01
1 Year+ - in Other8.01 GB110
1 Year+ - in Movies27.33 GB00

Note :

Feel free to post any comments about this torrent, including links to Subtitle, samples, screenshots, or any other relevant information. Watch Flightplan 2005 1080p BluRay x264-WPi Free Movies Online, Like 123Movies, Fmovies, Putlockers, Popcorntime, Netflix or Direct Download Flightplan 2005 1080p BluRay x264-WPi via Magnet Link.

Comments (0 Comments)




Please login or create a FREE account to post comments

Latest Searches